Last change 2020.03.01 14:20:52 / Time 2021.10.22 10:23:59

Music Database

My complete CD collection digitalized using differnent Linux tools in connection with remote CDDB databases.
These web pages give overview of content according to CDDB info.

cddb/710a5e09.txt

# xmcd CD database file generated by Grip 3.3.1
# 
# Track frame offsets:
#       183
#       10330
#       42918
#       62078
#       102020
#       129753
#       142308
#       166420
#       188403
# 
# Disc length: 2656 seconds
# 
# Revision: 22
# Submitted via: Grip 3.3.1
# 
DISCID=710a5e09
DTITLE=Enigma / Enigma 2: The Cross of Changes
DYEAR=1993
DGENRE=misc
DID3=10
TTITLE0=Second Chapter
TTITLE1=The Eyes of Truth
TTITLE2=Return to Innocence
TTITLE3=I Love You... I'll Kill You
TTITLE4=Silent Warrior
TTITLE5=The Dream of the Dolphin
TTITLE6=Age of Loneliness (Carly's Song)
TTITLE7=Out From the Deep
TTITLE8=The Cross of Changes
EXTD=
EXTT0=
EXTT1=
EXTT2=
EXTT3=
EXTT4=
EXTT5=
EXTT6=
EXTT7=
EXTT8=
PLAYORDER=