Last change 2020.03.01 14:20:52 / Time 2021.10.22 10:22:05

Music Database

My complete CD collection digitalized using differnent Linux tools in connection with remote CDDB databases.
These web pages give overview of content according to CDDB info.

cddb/7108f50b.txt

# xmcd CD database file generated by Grip 3.3.1
# 
# Track frame offsets:
#       183
#       10758
#       24033
#       40583
#       62908
#       84033
#       98983
#       112758
#       129558
#       143358
#       156933
# 
# Disc length: 2295 seconds
# 
# Revision: 1
# Submitted via: Grip 3.3.1
# 
DISCID=7108f50b
DTITLE=Lars Lilholt Band / Portland
DYEAR=1986
DGENRE=folk
DID3=53
TTITLE0=Alle går fra alle
TTITLE1=Jeg vil være stjerne
TTITLE2=Hjem igen
TTITLE3=Sejler ud
TTITLE4=Halleluja
TTITLE5=Kald det kærlighed
TTITLE6=Maris (og det store drengekor)
TTITLE7=Krig og fred
TTITLE8=Fugl Fønix
TTITLE9=Kun een jord
TTITLE10=Rosen min
EXTD= YEAR: 1986 ID3G: 53\n\nRecord number: Fanfare Records, FANCD 860
EXTD=0\n
EXTT0=
EXTT1=
EXTT2=
EXTT3=
EXTT4=
EXTT5=
EXTT6=
EXTT7=
EXTT8=
EXTT9=
EXTT10=
PLAYORDER=