Last change 2020.03.01 14:20:52 / Time 2020.09.19 15:43:44

Music Database

My complete CD collection digitalized using differnent Linux tools in connection with remote CDDB databases.
These web pages give overview of content according to CDDB info.

cddb/71087d0a.txt

# xmcd CD database file generated by Grip 3.2.0
# 
# Track frame offsets:
#       150
#       22543
#       33923
#       46872
#       61574
#       79416
#       92469
#       107143
#       126322
#       136499
# 
# Disc length: 2175 seconds
# 
# Revision: 1
# Submitted via: Grip 3.2.0
# 
DISCID=71087d0a
DTITLE=Gasolin / Black Box - Gasolin 3
DYEAR=1973
DGENRE=rock
DID3=17
TTITLE0=Smukke Linda
TTITLE1=Rabalder
TTITLE2=Katten
TTITLE3=Jeg troede jeg var
TTITLE4=Bobo's sang
TTITLE5=Det var Inga, Katinka og smukke Charley på sin Harley
TTITLE6=Jeg er splittergal
TTITLE7=Cafe paradis
TTITLE8=Bessefar
TTITLE9=Sju-bi-du-bi-mand
EXTD=YEAR: 1973
EXTT0=
EXTT1=
EXTT2=
EXTT3=
EXTT4=
EXTT5=
EXTT6=
EXTT7=
EXTT8=
EXTT9=
PLAYORDER=