Last change 2020.03.01 14:20:52 / Time 2020.09.19 14:37:07

Music Database

My complete CD collection digitalized using differnent Linux tools in connection with remote CDDB databases.
These web pages give overview of content according to CDDB info.

cddb/7008110a.txt

# xmcd CD database file generated by Grip 3.3.1
# 
# Track frame offsets:
#       150
#       11240
#       22577
#       49712
#       63435
#       77912
#       90662
#       105767
#       118840
#       130700
# 
# Disc length: 2067 seconds
# 
# Revision: 2
# Submitted via: Grip 3.3.1
# 
DISCID=7008110a
DTITLE=The Cliffters / The Cliffters XXX
DYEAR=1991
DGENRE=rock
DID3=17
TTITLE0=You don´t know
TTITLE1=Walk don´t run
TTITLE2=Living doll - A teenager in love - Only sixteen - Loveletter in t
TTITLE2=he sand
TTITLE3=Sweet dreams
TTITLE4=A fool such as I
TTITLE5=Wolly bully
TTITLE6=Echo boogie
TTITLE7=Danny
TTITLE8=Foottapper
TTITLE9=Love me tender - Young and beautiful - Can´t help falling in lov
TTITLE9=e with you
EXTD=
EXTT0=
EXTT1=
EXTT2=
EXTT3=
EXTT4=
EXTT5=
EXTT6=
EXTT7=
EXTT8=
EXTT9=
PLAYORDER=