Last change 2020.03.01 14:20:52 / Time 2020.09.19 14:34:49

Music Database

My complete CD collection digitalized using differnent Linux tools in connection with remote CDDB databases.
These web pages give overview of content according to CDDB info.

cddb/6e095808.txt

# xmcd CD database file generated by Grip 3.3.1
# 
# Track frame offsets:
#       182
#       18837
#       44497
#       61960
#       85990
#       112455
#       139025
#       156375
# 
# Disc length: 2394 seconds
# 
# Revision: 0
# Submitted via: Grip 3.3.1
# 
DISCID=6e095808
DTITLE=Anne Linnet / Univers 1
DYEAR=
DGENRE=rock
DID3=17
TTITLE0=Måne, sol og stjerner
TTITLE1=Det er ikke det du siger
TTITLE2=Idag er du star
TTITLE3=Flyv med mig
TTITLE4=Cha cha cha
TTITLE5=Livet det begynder nu
TTITLE6=Laila
TTITLE7=Twist
EXTD=
EXTT0=
EXTT1=
EXTT2=
EXTT3=
EXTT4=
EXTT5=
EXTT6=
EXTT7=
PLAYORDER=