Last change 2020.03.01 14:20:52 / Time 2021.10.22 10:36:37

Music Database

My complete CD collection digitalized using differnent Linux tools in connection with remote CDDB databases.
These web pages give overview of content according to CDDB info.

cddb/6c0bb308.txt

# xmcd CD database file generated by Grip 3.3.1
# 
# Track frame offsets:
#       150
#       27825
#       56775
#       85400
#       111825
#       144375
#       169975
#       196225
# 
# Disc length: 2997 seconds
# 
# Revision: 3
# Submitted via: Grip 3.3.1
# 
DISCID=6c0bb308
DTITLE=Koto / Masterpieces
DYEAR=1990
DGENRE=misc
DID3=52
TTITLE0=Visitors (The Alien Mix)
TTITLE1=Time
TTITLE2=Dragons Legend (Siegfried's Mix)
TTITLE3=Minoan War
TTITLE4=Jabdah (Chinese Mix)
TTITLE5=Plain
TTITLE6=Chinese Revenge ('89 Mix)
TTITLE7=Japanese Wargame (Master Mix)
EXTD=Sanke's Music SM 0007 CD\nProduced by Michiel v.d. Kuy / Made Up 
EXTD=Productions for ZYX\nConceptmanagement: Dick Zuydwijk
EXTT0=
EXTT1=
EXTT2=
EXTT3=
EXTT4=
EXTT5=
EXTT6=
EXTT7=
PLAYORDER=