Last change 2020.03.01 14:20:52 / Time 2021.12.01 15:47:11

Music Database

My complete CD collection digitalized using differnent Linux tools in connection with remote CDDB databases.
These web pages give overview of content according to CDDB info.

cddb/6a12a618.txt

# xmcd CD database file generated by Grip 3.0.7
# 
# Track frame offsets:
#       150
#       21310
#       38654
#       51893
#       66409
#       84247
#       97156
#       110403
#       123764
#       141002
#       152166
#       166525
#       180224
#       195076
#       216231
#       231604
#       247447
#       265497
#       278088
#       290746
#       300640
#       310396
#       329109
#       341750
# 
# Disc length: 4776 seconds
# 
# Revision: 3
# Submitted via: Grip 3.0.7
# 
DISCID=6a12a618
DTITLE=Various Artists / One Hit Wonders - CD2
DYEAR=2001
DGENRE=misc
DID3=12
TTITLE0=Keith West / Excerpt From A Teenage Opera
TTITLE1=Eric Burdon / San Franciscan Nights
TTITLE2=John Fred & His Playboy Band / Judy In Disguise
TTITLE3=Jeannie C. Riley / Harper Valley P.T.A.
TTITLE4=Bobby Goldsboro / Honey
TTITLE5=Tommy James and The Shondells / Mony Mony
TTITLE6=Jeff Beck / Love Is Blue
TTITLE7=Honeybus / I Can't Let Maggie Go
TTITLE8=Blue Mink / Melting Pot
TTITLE9=Desmond Dekker / The Israelites
TTITLE10=Jimmy Cliff / Wonderful World, Beautiful People
TTITLE11=Shocking Blue / Venus
TTITLE12=Tee Set / Ma Belle Amie
TTITLE13=Peter Sarstedt / Where Do You Go To My Lovely
TTITLE14=Don Fardon / Indian Reservation
TTITLE15=Mungo Jerry / In The Summertime
TTITLE16=Norman Greenbaum / Spirit In The Sky
TTITLE17=Dave Edmunds / I Hear You Knockin'
TTITLE18=Edison Lighthouse / Love Grows Where My Rosemary Goes
TTITLE19=Pipkins / Gimme Dat Ding
TTITLE20=The Piglets / Johnny Reggae
TTITLE21=Don McLean / American Pie
TTITLE22=Susan Raye / L.A. International Airport
TTITLE23=McGuiness Flint / When I'm Dead And Gone
EXTD=YEAR: 2001
EXTT0=
EXTT1=
EXTT2=
EXTT3=
EXTT4=
EXTT5=
EXTT6=
EXTT7=
EXTT8=
EXTT9=
EXTT10=
EXTT11=
EXTT12=
EXTT13=
EXTT14=
EXTT15=
EXTT16=
EXTT17=
EXTT18=
EXTT19=
EXTT20=
EXTT21=
EXTT22=
EXTT23=
PLAYORDER=