Last change 2020.03.01 14:20:52 / Time 2021.12.07 03:34:34

Music Database

My complete CD collection digitalized using differnent Linux tools in connection with remote CDDB databases.
These web pages give overview of content according to CDDB info.

cddb/690d7c07.txt

# xmcd CD database file generated by Grip 3.3.1
# 
# Track frame offsets:
#       150
#       58182
#       82314
#       114527
#       163050
#       187002
#       224274
# 
# Disc length: 3454 seconds
# 
# Revision: 1
# Submitted via: Grip 3.3.1
# 
DISCID=690d7c07
DTITLE=Elektrum / Live at the Opera
DYEAR=1998
DGENRE=misc
DID3=12
TTITLE0=Jungle Juice
TTITLE1=Red Lead
TTITLE2=Hinterland
TTITLE3=Opus 9
TTITLE4=Stone Fish
TTITLE5=Elektrum
TTITLE6=Popocatepetl
EXTD= YEAR: 1998 ID3G:  67
EXTT0=
EXTT1=
EXTT2=
EXTT3=
EXTT4=
EXTT5=
EXTT6=
PLAYORDER=