Last change 2020.03.01 14:20:52 / Time 2021.10.22 09:23:01

Music Database

My complete CD collection digitalized using differnent Linux tools in connection with remote CDDB databases.
These web pages give overview of content according to CDDB info.

cddb/660b2708.txt

# xmcd CD database file generated by Grip 3.0.7
# 
# Track frame offsets:
#       183
#       29985
#       57133
#       78778
#       106250
#       134618
#       154808
#       181970
# 
# Disc length: 2857 seconds
# 
# Revision: 5
# Submitted via: Grip 3.0.7
# 
DISCID=660b2708
DTITLE=Kitaro / Ten Years - CD1
DYEAR=1988
DGENRE=newage
DID3=10
TTITLE0=Dawn / Rising Sun
TTITLE1=Caravansary
TTITLE2=Shimmering Horizon
TTITLE3=Cosmic Love
TTITLE4=Theme From Silk Road
TTITLE5=Lord Of Wind
TTITLE6=Oasis
TTITLE7=The Clouds
EXTD=
EXTT0=
EXTT1=
EXTT2=
EXTT3=
EXTT4=
EXTT5=
EXTT6=
EXTT7=
PLAYORDER=