Last change 2020.03.01 14:20:52 / Time 2021.10.22 10:08:08

Music Database

My complete CD collection digitalized using differnent Linux tools in connection with remote CDDB databases.
These web pages give overview of content according to CDDB info.

cddb/63092c08.txt

# xmcd CD database file generated by Grip 3.3.1
# 
# Track frame offsets:
#       150
#       10902
#       33515
#       56897
#       87880
#       104920
#       120175
#       153562
# 
# Disc length: 2350 seconds
# 
# Revision: 20
# Submitted via: Grip 3.3.1
# 
DISCID=63092c08
DTITLE=Jean Michel Jarre / Equinoxe
DYEAR=1978
DGENRE=soundtrack
DID3=33
TTITLE0=Equinoxe part 1
TTITLE1=Equinoxe part 2
TTITLE2=Equinoxe part 3
TTITLE3=Equinoxe part 4
TTITLE4=Equinoxe part 5
TTITLE5=Equinoxe part 6
TTITLE6=Equinoxe part 7
TTITLE7=Equinoxe part 8
EXTD= ID3G:  33 YEAR: 1978
EXTT0=
EXTT1=
EXTT2=
EXTT3=
EXTT4=
EXTT5=
EXTT6=
EXTT7=
PLAYORDER=