Last change 2020.03.01 14:20:52 / Time 2020.09.24 09:39:19

Music Database

My complete CD collection digitalized using differnent Linux tools in connection with remote CDDB databases.
These web pages give overview of content according to CDDB info.

cddb/62108d18.txt

# xmcd CD database file generated by Grip 3.3.1
# 
# Track frame offsets:
#       150
#       11117
#       27490
#       40200
#       56795
#       68930
#       84125
#       97980
#       110877
#       125562
#       135185
#       144182
#       154485
#       165852
#       179365
#       192492
#       208630
#       222370
#       235890
#       249320
#       263175
#       274610
#       290872
#       302145
# 
# Disc length: 4239 seconds
# 
# Revision: 1
# Submitted via: Grip 3.3.1
# 
DISCID=62108d18
DTITLE=Gustav Winckler / Hans Største Hits - Disc 2
DYEAR=2000
DGENRE=misc
DID3=12
TTITLE0=Det Ved Du Og Det Ved Jeg
TTITLE1=Hjem Jeg Ville Så Gerne
TTITLE2=Så Se Dog På Verden
TTITLE3=Skibet Skal Sejle I Nat
TTITLE4=Røde Læber Skal Man Kysse
TTITLE5=I Huset Derhjemme
TTITLE6=Jeg Savner Mig Selv
TTITLE7=Bare Du Bli`r Hos Mig
TTITLE8=At Se Sin Barndomsby På Ny
TTITLE9=Snart Så Kommer Vel De Gode Tider
TTITLE10=Hvis Jeg Må
TTITLE11=Jeg Vil Vente Ved Telefonen
TTITLE12=Jeg Byder Dem En Rose
TTITLE13=I En Robåd Til Kina
TTITLE14=Gyldenlakken
TTITLE15=Nordsøbølger
TTITLE16=Gæstebogen
TTITLE17=Som Et Solglimt
TTITLE18=Der Er Intet Der Kan Få Mig Til At Glemmme Dig
TTITLE19=Der Gror Ikke Mos På Rullesten
TTITLE20=Måske Er Alt Forbi I Morgen
TTITLE21=Lille Kammerat
TTITLE22=Adios Amigo
TTITLE23=Det Er Så Svært At Si`e Farvel Til Den Man Elsker
EXTD=\nRecord number: Universal 159 983 2\n
EXTT0=
EXTT1=
EXTT2=
EXTT3=
EXTT4=
EXTT5=
EXTT6=
EXTT7=
EXTT8=
EXTT9=
EXTT10=
EXTT11=
EXTT12=
EXTT13=
EXTT14=
EXTT15=
EXTT16=
EXTT17=
EXTT18=
EXTT19=
EXTT20=
EXTT21=
EXTT22=
EXTT23=
PLAYORDER=