Last change 2020.03.01 14:20:52 / Time 2021.10.22 10:08:47

Music Database

My complete CD collection digitalized using differnent Linux tools in connection with remote CDDB databases.
These web pages give overview of content according to CDDB info.

cddb/620afd08.txt

# xmcd CD database file generated by Grip 3.0.7
# 
# Track frame offsets:
#       183
#       28120
#       56695
#       76245
#       108338
#       139195
#       165515
#       179328
# 
# Disc length: 2815 seconds
# 
# Revision: 2
# Submitted via: Grip 3.0.7
# 
DISCID=620afd08
DTITLE=Kitaro / Ten Years - CD2
DYEAR=1988
DGENRE=newage
DID3=10
TTITLE0=Earth Born
TTITLE1=Aqua
TTITLE2=Mirage
TTITLE3=Moon-Star
TTITLE4=Flight
TTITLE5=God Of Thunder
TTITLE6=Bell Tower
TTITLE7=Song For Peace
EXTD=
EXTT0=
EXTT1=
EXTT2=
EXTT3=
EXTT4=
EXTT5=
EXTT6=
EXTT7=
PLAYORDER=