Last change 2020.03.01 14:20:52 / Time 2021.10.22 08:49:22

Music Database

My complete CD collection digitalized using differnent Linux tools in connection with remote CDDB databases.
These web pages give overview of content according to CDDB info.

cddb/61118218.txt

# xmcd CD database file generated by Grip 3.3.1
# 
# Track frame offsets:
#       150
#       19345
#       33047
#       49457
#       65965
#       76187
#       88080
#       100345
#       113575
#       126825
#       136387
#       149997
#       163070
#       177665
#       195475
#       212660
#       229077
#       244707
#       258755
#       270137
#       280635
#       293647
#       305647
#       319102
# 
# Disc length: 4484 seconds
# 
# Revision: 2
# Submitted via: Grip 3.3.1
# 
DISCID=61118218
DTITLE=Cliff Richard / Remember Me
DYEAR=1987
DGENRE=rock
DID3=12
TTITLE0=We Don't Talk Anymore
TTITLE1=Power to All Our Friends
TTITLE2=Devil Woman
TTITLE3=Wiired for Sound
TTITLE4=The Day I Met Marie
TTITLE5=Livin' Doll
TTITLE6=Lucky Lips
TTITLE7=Spanish Harlem
TTITLE8=All My Love (Solo Tu)
TTITLE9=Summer Holiday
TTITLE10=Visions
TTITLE11=Daddy's Home
TTITLE12=It's All in the Game
TTITLE13=Miss You Nights
TTITLE14=Some People
TTITLE15=Dreamin'
TTITLE16=Carrie
TTITLE17=The Young Ones
TTITLE18=Congratulations
TTITLE19=The Minute You're Gone
TTITLE20=Don't Talk to Him
TTITLE21=It's All Over
TTITLE22=(You Keep Me) Hangin' On
TTITLE23=Remember Me
EXTD= YEAR: 1987
EXTT0=
EXTT1=
EXTT2=
EXTT3=
EXTT4=
EXTT5=
EXTT6=
EXTT7=
EXTT8=
EXTT9=
EXTT10=
EXTT11=
EXTT12=
EXTT13=
EXTT14=
EXTT15=
EXTT16=
EXTT17=
EXTT18=
EXTT19=
EXTT20=
EXTT21=
EXTT22=
EXTT23=
PLAYORDER=