Last change 2020.03.01 14:20:52 / Time 2020.09.24 09:46:51

Music Database

My complete CD collection digitalized using differnent Linux tools in connection with remote CDDB databases.
These web pages give overview of content according to CDDB info.

cddb/5b119d17.txt

# xmcd CD database file generated by Grip 3.3.1
# 
# Track frame offsets:
#       150
#       17180
#       34292
#       49067
#       68205
#       81305
#       98672
#       115482
#       128245
#       140907
#       152217
#       164347
#       177050
#       193332
#       207537
#       222070
#       235230
#       251380
#       268885
#       284420
#       301367
#       313547
#       323467
# 
# Disc length: 4511 seconds
# 
# Revision: 1
# Submitted via: Grip 3.3.1
# 
DISCID=5b119d17
DTITLE=Rugsted / Kreutzfeldt / 1+2
DYEAR=1989
DGENRE=misc
DID3=12
TTITLE0=Godda' igen
TTITLE1=Sad i parken
TTITLE2=Du vil ha' mer'
TTITLE3=Jeg ved det godt
TTITLE4=Dele dine drømme
TTITLE5=Endnu et efterår
TTITLE6=Kom igen
TTITLE7=Ups!
TTITLE8=Sensommer
TTITLE9=Oppe om natten
TTITLE10=En ny dag begynder
TTITLE11=Da du var min helt alene
TTITLE12=Ønsker du var her
TTITLE13=Sjoot, sjoot
TTITLE14=Rundt op og ned
TTITLE15=Kom så jeg kan se dig
TTITLE16=Dancer
TTITLE17=Tilfældigvis forbi
TTITLE18=Spring op, tag med
TTITLE19=Ikke flere chancer
TTITLE20=Er jeg på listen
TTITLE21=Måske igen
TTITLE22=Jeg venter
EXTD=
EXTT0=
EXTT1=
EXTT2=
EXTT3=
EXTT4=
EXTT5=
EXTT6=
EXTT7=
EXTT8=
EXTT9=
EXTT10=
EXTT11=
EXTT12=
EXTT13=
EXTT14=
EXTT15=
EXTT16=
EXTT17=
EXTT18=
EXTT19=
EXTT20=
EXTT21=
EXTT22=
PLAYORDER=