Last change 2020.03.01 14:20:52 / Time 2021.12.01 14:50:01

Music Database

My complete CD collection digitalized using differnent Linux tools in connection with remote CDDB databases.
These web pages give overview of content according to CDDB info.

cddb/56085d09.txt

# xmcd CD database file generated by Grip 3.3.1
# 
# Track frame offsets:
#       150
#       15887
#       30470
#       40780
#       53495
#       72010
#       90060
#       104352
#       115922
# 
# Disc length: 2143 seconds
# 
# Revision: 2
# Submitted via: Grip 3.3.1
# 
DISCID=56085d09
DTITLE=Kliche / Supertanker
DYEAR=1980
DGENRE=rock
DID3=17
TTITLE0=Igen Og Igen
TTITLE1=Havets Blå
TTITLE2=Hetz
TTITLE3=Militskvinder
TTITLE4=Panorama
TTITLE5=Aldrig Mere
TTITLE6=Stjernerne I Deres øjne
TTITLE7=Bodyguards
TTITLE8=Masselinjen
EXTD=
EXTT0=
EXTT1=
EXTT2=
EXTT3=
EXTT4=
EXTT5=
EXTT6=
EXTT7=
EXTT8=
PLAYORDER=