Last change 2020.03.01 14:20:52 / Time 2021.10.22 10:47:59

Music Database

My complete CD collection digitalized using differnent Linux tools in connection with remote CDDB databases.
These web pages give overview of content according to CDDB info.

cddb/53102718.txt

# xmcd CD database file generated by Grip 3.3.1
# 
# Track frame offsets:
#       150
#       12000
#       24422
#       36197
#       45187
#       55952
#       67247
#       78787
#       90252
#       102797
#       118740
#       129300
#       141185
#       153900
#       169650
#       180672
#       192595
#       208147
#       225355
#       237715
#       251215
#       262267
#       276402
#       295077
# 
# Disc length: 4137 seconds
# 
# Revision: 2
# Submitted via: Grip 3.3.1
# 
DISCID=53102718
DTITLE=Gustav Winckler / Hans Største Hits - Disc 1
DYEAR=2000
DGENRE=misc
DID3=12
TTITLE0=Gem Et Lille Smil Til Det Bli`r Gråvejr
TTITLE1=Bag En Lukket Dør
TTITLE2=Den Mørke Landevej
TTITLE3=Er Jeg Et Fjols I Kærlighed
TTITLE4=Blå Roser Til En Blond Pige
TTITLE5=Lidt Go` Musik
TTITLE6=En Ærlig Kærlig Særlig Herlig Sommer
TTITLE7=Den Lille Gylden Ring
TTITLE8=Danse Med Dig Ind I Lykken
TTITLE9=Nu Vil Jeg Leve Mit Liv For Mig Selv
TTITLE10=Væk Med De Sure Miner
TTITLE11=Kondisangen
TTITLE12=To Blå Øjne
TTITLE13=Ingen Bryder Livets Cirkel
TTITLE14=Salami
TTITLE15=Hvide Måge
TTITLE16=To Lys På Et Bord
TTITLE17=Mens Vi Går Hjem Gemmen By`n
TTITLE18=Zigeuner Zigeuner
TTITLE19=Jeg Har Sendt En Masse Roser
TTITLE20=Det Var På Capri
TTITLE21=Sølvstænk I Dit Gyldne Hår
TTITLE22=Ciao Ciao Bambina
TTITLE23=Når Du Ser Et Stjerneskud
EXTD=\nRecord number: Universal 159 983 2\n
EXTT0=
EXTT1=
EXTT2=
EXTT3=
EXTT4=
EXTT5=
EXTT6=
EXTT7=
EXTT8=
EXTT9=
EXTT10=
EXTT11=
EXTT12=
EXTT13=
EXTT14=
EXTT15=
EXTT16=
EXTT17=
EXTT18=
EXTT19=
EXTT20=
EXTT21=
EXTT22=
EXTT23=
PLAYORDER=