Last change 2020.03.01 14:20:52 / Time 2020.09.25 02:50:11

Music Database

My complete CD collection digitalized using differnent Linux tools in connection with remote CDDB databases.
These web pages give overview of content according to CDDB info.

cddb/5308d407.txt

# xmcd CD database file generated by Grip 3.0.4
# 
# Track frame offsets:
#       183
#       36835
#       63420
#       91830
#       114588
#       136275
#       151233
# 
# Disc length: 2262 seconds
# 
# Revision: 3
# Submitted via: Grip 3.0.4
# 
DISCID=5308d407
DTITLE=Dire Straits / Making Movies
DYEAR=1980
DGENRE=misc
DID3=17
TTITLE0=Tunnel of love
TTITLE1=Romeo and Juliet
TTITLE2=Skateaway
TTITLE3=Expresso love
TTITLE4=Hand in hand
TTITLE5=Solid rock
TTITLE6=Les boys
EXTD=
EXTT0=Feat. Xavier Naidoo
EXTT1=
EXTT2=Vs. Dr. Ring-ding
EXTT3=
EXTT4=
EXTT5=
EXTT6=
PLAYORDER=