Last change 2020.03.01 14:20:52 / Time 2020.09.25 02:25:41

Music Database

My complete CD collection digitalized using differnent Linux tools in connection with remote CDDB databases.
These web pages give overview of content according to CDDB info.

cddb/5210d217.txt

# xmcd CD database file generated by Grip 3.3.1
# 
# Track frame offsets:
#       150
#       16162
#       29895
#       40177
#       54355
#       67160
#       86047
#       101812
#       115312
#       128037
#       143310
#       153517
#       165030
#       176952
#       191605
#       205250
#       220905
#       236737
#       255317
#       266702
#       281102
#       296632
#       308565
# 
# Disc length: 4308 seconds
# 
# Revision: 2
# Submitted via: Grip 3.3.1
# 
DISCID=5210d217
DTITLE=Walkers / Greatest Hits CD1
DYEAR=
DGENRE=misc
DID3=13
TTITLE0=Forever Together
TTITLE1=Sha La La La La
TTITLE2=Dabadio Dabadie
TTITLE3=Fire
TTITLE4=Funky Night
TTITLE5=Sundown
TTITLE6=Baby Love
TTITLE7=Strip Tease
TTITLE8=Do The Yo Yo
TTITLE9=Raggy Lady
TTITLE10=Little Kitty
TTITLE11=Rosie
TTITLE12=My Beautyful You
TTITLE13=Cinderella
TTITLE14=Sunshine
TTITLE15=(We're Just A) Rock 'n' Roll Band
TTITLE16=Wish I Could Give You Up
TTITLE17=Dance On (Disco Darling)
TTITLE18=Let's Go Let's Go Let's Rock 'n' Roll
TTITLE19=Aeroplane Song
TTITLE20=Marry Me
TTITLE21=Looky Looky
TTITLE22=Face The Reality
EXTD=Cd 1 The Originals\n\nRecord number: Universal 542-342-2\n
EXTT0=
EXTT1=
EXTT2=
EXTT3=
EXTT4=
EXTT5=
EXTT6=
EXTT7=
EXTT8=
EXTT9=
EXTT10=
EXTT11=
EXTT12=
EXTT13=
EXTT14=
EXTT15=
EXTT16=
EXTT17=
EXTT18=
EXTT19=
EXTT20=
EXTT21=
EXTT22=
PLAYORDER=