Last change 2020.03.01 14:20:52 / Time 2020.09.25 02:31:17

Music Database

My complete CD collection digitalized using differnent Linux tools in connection with remote CDDB databases.
These web pages give overview of content according to CDDB info.

cddb/5209a707.txt

# xmcd CD database file generated by Grip 3.3.1
# 
# Track frame offsets:
#       150
#       52732
#       70290
#       98287
#       117515
#       139870
#       165427
# 
# Disc length: 2473 seconds
# 
# Revision: 0
# Submitted via: Grip 3.3.1
# 
DISCID=5209a707
DTITLE=Jean-Michel Jarre / Oxygene 7-13
DYEAR=1997
DGENRE=data
DID3=52
TTITLE0=Oxygene Part 7
TTITLE1=Oxygene Part 8
TTITLE2=Oxygene Part 9
TTITLE3=Oxygene Part 10
TTITLE4=Oxygene Part 11
TTITLE5=Oxygene Part 12
TTITLE6=Oxygene Part 13
EXTD= YEAR: 1997
EXTT0=
EXTT1=
EXTT2=
EXTT3=
EXTT4=
EXTT5=
EXTT6=
PLAYORDER=