Last change 2020.03.01 14:20:52 / Time 2021.10.22 09:56:02

Music Database

My complete CD collection digitalized using differnent Linux tools in connection with remote CDDB databases.
These web pages give overview of content according to CDDB info.

cddb/4f110b15.txt

# xmcd CD database file generated by Grip 3.3.1
# 
# Track frame offsets:
#       150
#       15362
#       32572
#       45595
#       65115
#       81697
#       104165
#       116712
#       131977
#       147215
#       161120
#       181832
#       200170
#       212242
#       224627
#       240860
#       251455
#       269185
#       285452
#       301637
#       321547
# 
# Disc length: 4365 seconds
# 
# Revision: 4
# Submitted via: Grip 3.3.1
# 
DISCID=4f110b15
DTITLE=Gasolin / Rabalderstræde Forever
DYEAR=1990
DGENRE=rock
DID3=17
TTITLE0=Langebro
TTITLE1=På Banen (Derudaf)
TTITLE2=Det Var Inga, Katinka Og Smukke Charlie På Sin Harley
TTITLE3=Se Din By Fra Tårnets Top
TTITLE4=Kap Farvel Til Umanarssuaq
TTITLE5=Rabalderstræde
TTITLE6=Kvinde Min
TTITLE7=Pilli Villi
TTITLE8=Stakkels Jim
TTITLE9=Længes Hjem
TTITLE10=Sirenesangen
TTITLE11=Kloden Drejer Stille Rundt
TTITLE12=Pas På Svinget I Solrød
TTITLE13=U Lu La Lu
TTITLE14=Masser Af Succes
TTITLE15=Get On The Train
TTITLE16=Strengelegen
TTITLE17=Hvad Gør Vi Nu, Lille Du
TTITLE18=Jumbo Nummer Nul
TTITLE19=Det Bedste Til Mig Og Mine Venner
TTITLE20=Som Et Strejf Af En Dråbe
EXTD=
EXTT0=
EXTT1=
EXTT2=
EXTT3=
EXTT4=
EXTT5=
EXTT6=
EXTT7=
EXTT8=
EXTT9=
EXTT10=
EXTT11=
EXTT12=
EXTT13=
EXTT14=
EXTT15=
EXTT16=
EXTT17=
EXTT18=
EXTT19=
EXTT20=
PLAYORDER=