Last change 2020.03.01 14:20:52 / Time 2021.12.01 16:27:37

Music Database

My complete CD collection digitalized using differnent Linux tools in connection with remote CDDB databases.
These web pages give overview of content according to CDDB info.

cddb/4e126915.txt

# xmcd CD database file generated by Grip 3.3.1
# 
# Track frame offsets:
#       182
#       14167
#       29240
#       43320
#       59792
#       76800
#       93177
#       111682
#       129942
#       146735
#       162630
#       175765
#       194217
#       212112
#       231592
#       248000
#       268240
#       286012
#       305360
#       323037
#       339990
# 
# Disc length: 4715 seconds
# 
# Revision: 4
# Submitted via: Grip 3.3.1
# 
DISCID=4e126915
DTITLE=Erasure / Pop! 20hits
DYEAR=1992
DGENRE=rock
DID3=13
TTITLE0=Who Needs Love (Like That)
TTITLE1=Heavenly Action
TTITLE2=Oh L'Amour
TTITLE3=Sometimes
TTITLE4=It Doesn't Have To Be
TTITLE5=Victim Of Love
TTITLE6=The Circus
TTITLE7=Ship Of Fools
TTITLE8=Chains Of Love
TTITLE9=A Little Respect
TTITLE10=Stop!
TTITLE11=Drama!
TTITLE12=You Surround Me
TTITLE13=Blue Savannah
TTITLE14=Star
TTITLE15=Chorus
TTITLE16=Love To Hate You
TTITLE17=Am I Right?
TTITLE18=Breath Of Life
TTITLE19=Take A Chance On Me
TTITLE20=Who needs love (like that) Hamburg mix
EXTD=\n YEAR: 1992
EXTT0=
EXTT1=
EXTT2=
EXTT3=
EXTT4=
EXTT5=
EXTT6=
EXTT7=
EXTT8=
EXTT9=
EXTT10=
EXTT11=
EXTT12=
EXTT13=
EXTT14=
EXTT15=
EXTT16=
EXTT17=
EXTT18=
EXTT19=
EXTT20=
PLAYORDER=