Last change 2020.03.01 14:20:52 / Time 2020.09.24 07:50:54

Music Database

My complete CD collection digitalized using differnent Linux tools in connection with remote CDDB databases.
These web pages give overview of content according to CDDB info.

cddb/4d09ef06.txt

# xmcd CD database file generated by Grip 3.3.1
# 
# Track frame offsets:
#       151
#       19320
#       125328
#       140994
#       157571
#       176915
# 
# Disc length: 2545 seconds
# 
# Revision: 0
# Submitted via: Grip 3.3.1
# 
DISCID=4d09ef06
DTITLE=Buddha / Red Acd 01390
DYEAR=
DGENRE=misc
DID3=20
TTITLE0=Track1
TTITLE1=Track2
TTITLE2=Track3
TTITLE3=Track4
TTITLE4=Track5
TTITLE5=Track6
EXTD=
EXTT0=
EXTT1=
EXTT2=
EXTT3=
EXTT4=
EXTT5=
PLAYORDER=