Last change 2020.03.01 14:20:52 / Time 2021.10.22 08:58:39

Music Database

My complete CD collection digitalized using differnent Linux tools in connection with remote CDDB databases.
These web pages give overview of content according to CDDB info.

cddb/4d088306.txt

# xmcd CD database file generated by Grip 3.3.1
# 
# Track frame offsets:
#       183
#       28098
#       54728
#       81835
#       98633
#       138713
# 
# Disc length: 2181 seconds
# 
# Revision: 6
# Submitted via: Grip 3.3.1
# 
DISCID=4d088306
DTITLE=Kraftwerk / The Man Machine
DYEAR=1978
DGENRE=misc
DID3=52
TTITLE0=The Robots
TTITLE1=Spacelab
TTITLE2=Metropolis
TTITLE3=The Model
TTITLE4=Neon Lights
TTITLE5=The Man Machine
EXTD=Capitol\nCDP 7 46039 2\nDIDX 2416\n YEAR: 1978
EXTT0=
EXTT1=
EXTT2=
EXTT3=
EXTT4=
EXTT5=
PLAYORDER=