Last change 2020.03.01 14:20:52 / Time 2020.09.19 14:26:57

Music Database

My complete CD collection digitalized using differnent Linux tools in connection with remote CDDB databases.
These web pages give overview of content according to CDDB info.

cddb/4c09e205.txt

# xmcd CD database file generated by Grip 3.3.1
# 
# Track frame offsets:
#       151
#       35170
#       78963
#       111596
#       149927
# 
# Disc length: 2532 seconds
# 
# Revision: 0
# Submitted via: Grip 3.3.1
# 
DISCID=4c09e205
DTITLE=Buddha / Red Blue Vol3 Acd 01396
DYEAR=
DGENRE=misc
DID3=20
TTITLE0=Track1
TTITLE1=Track2
TTITLE2=Track3
TTITLE3=Track4
TTITLE4=Track5
EXTD=
EXTT0=
EXTT1=
EXTT2=
EXTT3=
EXTT4=
PLAYORDER=