Last change 2020.03.01 14:20:52 / Time 2021.10.18 11:06:03

Music Database

My complete CD collection digitalized using differnent Linux tools in connection with remote CDDB databases.
These web pages give overview of content according to CDDB info.

cddb/4a0b4207.txt

# xmcd CD database file generated by Grip 3.3.1
# 
# Track frame offsets:
#       150
#       24800
#       46695
#       113437
#       153515
#       178125
#       205905
# 
# Disc length: 2884 seconds
# 
# Revision: 3
# Submitted via: Grip 3.3.1
# 
DISCID=4a0b4207
DTITLE=Monrad & Rislund / Mens Vi Venter På Prinsen
DYEAR=
DGENRE=misc
DID3=12
TTITLE0=Den Store Hjælpegalla
TTITLE1=Pladderballe Nærradiotheme
TTITLE2=1-2-3 Klar Klar Gæt
TTITLE3=Giro 314
TTITLE4=Radioteatret
TTITLE5=Vi Skal Dø
TTITLE6=De Sene Nyheder
EXTD=
EXTT0=
EXTT1=
EXTT2=
EXTT3=
EXTT4=
EXTT5=
EXTT6=
PLAYORDER=