Last change 2020.03.01 14:20:52 / Time 2020.09.24 08:16:46

Music Database

My complete CD collection digitalized using differnent Linux tools in connection with remote CDDB databases.
These web pages give overview of content according to CDDB info.

cddb/47127d14.txt

# xmcd CD database file generated by Grip 3.3.1
# 
# Track frame offsets:
#       150
#       13512
#       32552
#       47837
#       69515
#       87437
#       100725
#       117710
#       131135
#       143977
#       163407
#       185227
#       204730
#       222515
#       244615
#       266625
#       284555
#       303252
#       320975
#       340232
# 
# Disc length: 4735 seconds
# 
# Revision: 14
# Submitted via: Grip 3.3.1
# 
DISCID=47127d14
DTITLE=Brian Ferry With Roxy Music / More Than This
DYEAR=1995
DGENRE=misc
DID3=17
TTITLE0=Virginia Plain
TTITLE1=A Hard Rain's A-gonna Fall
TTITLE2=Street Life
TTITLE3=These Foolish Things
TTITLE4=Love Is The Drug
TTITLE5=Smoke Gets In Your Eyes
TTITLE6=Dance Away
TTITLE7=Let's Stick Together
TTITLE8=Angel Eyes
TTITLE9=Slave To Love
TTITLE10=Oh Yeah
TTITLE11=Don't Stop The Dance
TTITLE12=Same Old Scene
TTITLE13=Is Your Love Strong Enough
TTITLE14=Jealous Guy
TTITLE15=Kiss And Tell
TTITLE16=More Than This
TTITLE17=I Put A Spell On You
TTITLE18=Avalon
TTITLE19=Your Painted Smile
EXTD=1995Virgin Records LTD8 40951 2 YEAR: 1995
EXTT0=
EXTT1=
EXTT2=
EXTT3=
EXTT4=
EXTT5=
EXTT6=
EXTT7=
EXTT8=
EXTT9=
EXTT10=
EXTT11=
EXTT12=
EXTT13=
EXTT14=
EXTT15=
EXTT16=
EXTT17=
EXTT18=
EXTT19=
PLAYORDER=