Last change 2020.03.01 14:20:52 / Time 2021.12.07 01:59:15

Music Database

My complete CD collection digitalized using differnent Linux tools in connection with remote CDDB databases.
These web pages give overview of content according to CDDB info.

cddb/4710e916.txt

# xmcd CD database file generated by Grip 3.3.1
# 
# Track frame offsets:
#       150
#       15460
#       31220
#       48840
#       67100
#       78665
#       94332
#       113832
#       129072
#       140147
#       157487
#       175660
#       185207
#       199745
#       214392
#       226965
#       240320
#       255700
#       267610
#       282312
#       294237
#       309250
# 
# Disc length: 4331 seconds
# 
# Revision: 0
# Submitted via: Grip 3.3.1
# 
DISCID=4710e916
DTITLE=Teresa Teng / 25Year (ACD-1995-5-8) Red
DYEAR=
DGENRE=misc
DID3=13
TTITLE0=What do you say
TTITLE1=Sweetie sweet
TTITLE2=I and you
TTITLE3=Maple leaves whirling
TTITLE4=The plum flower
TTITLE5=The moon represents my heart
TTITLE6=Who will love me
TTITLE7=Dark sky
TTITLE8=Sunflower
TTITLE9=Northern pub
TTITLE10=Selling “zong zi” (rice wrapped in bamboo leaves)
TTITLE11=Don’t pick the roadside wild flowers
TTITLE12=Rhyme of the sea
TTITLE13=Do you know whom I love
TTITLE14=Where to find my loving one
TTITLE15=How can I leave you
TTITLE16=Weeping with drifting river
TTITLE17=Story of a little town
TTITLE18=Tuberose
TTITLE19=If the dream is real
TTITLE20=When will he come again
TTITLE21=Goodbye my love
EXTD=
EXTT0=
EXTT1=
EXTT2=
EXTT3=
EXTT4=
EXTT5=
EXTT6=
EXTT7=
EXTT8=
EXTT9=
EXTT10=
EXTT11=
EXTT12=
EXTT13=
EXTT14=
EXTT15=
EXTT16=
EXTT17=
EXTT18=
EXTT19=
EXTT20=
EXTT21=
PLAYORDER=