Last change 2020.03.01 14:20:52 / Time 2021.10.22 09:24:33

Music Database

My complete CD collection digitalized using differnent Linux tools in connection with remote CDDB databases.
These web pages give overview of content according to CDDB info.

cddb/470a3e08.txt

# xmcd CD database file generated by Grip 3.3.1
# 
# Track frame offsets:
#       183
#       26105
#       41340
#       64580
#       86283
#       112600
#       151215
#       172503
# 
# Disc length: 2624 seconds
# 
# Revision: 3
# Submitted via: Grip 3.3.1
# 
DISCID=470a3e08
DTITLE=Elektric Music / Esperanto
DYEAR=1993
DGENRE=rock
DID3=12
TTITLE0=TV
TTITLE1=Show Business
TTITLE2=Kissing the Machine
TTITLE3=Lifestyle
TTITLE4=Crosstalk
TTITLE5=Information
TTITLE6=Esperanto
TTITLE7=Overdrive
EXTD=
EXTT0=
EXTT1=
EXTT2=
EXTT3=
EXTT4=
EXTT5=
EXTT6=
EXTT7=
PLAYORDER=