Last change 2020.03.01 14:20:52 / Time 2020.09.25 03:03:53

Music Database

My complete CD collection digitalized using differnent Linux tools in connection with remote CDDB databases.
These web pages give overview of content according to CDDB info.

cddb/44111f16.txt

# xmcd CD database file generated by Grip 3.2.0
# 
# Track frame offsets:
#       150
#       19001
#       33631
#       52776
#       69752
#       87083
#       101804
#       114746
#       131739
#       151488
#       164077
#       177724
#       192656
#       206417
#       226139
#       240074
#       251729
#       264425
#       276486
#       291225
#       306366
#       319322
# 
# Disc length: 4385 seconds
# 
# Revision: 4
# Submitted via: Grip 3.2.0
# 
DISCID=44111f16
DTITLE=Teresa Teng / 25Year Vol2 (ACD-1996-9-1)
DYEAR=
DGENRE=misc
DID3=13
TTITLE0=Drunken tango
TTITLE1=Tuberose
TTITLE2=I only care for you
TTITLE3=Lover
TTITLE4=To repay
TTITLE5=Love home town deeply
TTITLE6=I saw chimney smoke again
TTITLE7=Lover’s concern
TTITLE8=Just like your gentleness
TTITLE9=Cloud river
TTITLE10=Poetic sentiment
TTITLE11=My unforgettable first lover
TTITLE12=Thinking of you till broken heart
TTITLE13=Where are you my love
TTITLE14=Young girl at 18 is a flower
TTITLE15=A beautiful world
TTITLE16=Regret I loved you
TTITLE17=Rhythm of the rain
TTITLE18=Last night when waken up from dream
TTITLE19=Moon likes a lemon
TTITLE20=Country road (bad)
TTITLE21=Because I love you (bad)
EXTD=
EXTT0=
EXTT1=
EXTT2=
EXTT3=
EXTT4=
EXTT5=
EXTT6=
EXTT7=
EXTT8=
EXTT9=
EXTT10=
EXTT11=
EXTT12=
EXTT13=
EXTT14=
EXTT15=
EXTT16=
EXTT17=
EXTT18=
EXTT19=
EXTT20=
EXTT21=
PLAYORDER=