Last change 2020.03.01 14:20:52 / Time 2020.09.25 04:05:06

Music Database

My complete CD collection digitalized using differnent Linux tools in connection with remote CDDB databases.
These web pages give overview of content according to CDDB info.

cddb/400d7516.txt

# xmcd CD database file generated by Grip 3.3.1
# 
# Track frame offsets:
#       150
#       7815
#       21203
#       33090
#       33505
#       50443
#       61385
#       74333
#       87015
#       95175
#       109475
#       129210
#       144270
#       146568
#       163053
#       182778
#       196158
#       210488
#       212600
#       230220
#       239610
#       254870
# 
# Disc length: 3447 seconds
# 
# Revision: 9
# Submitted via: Grip 3.3.1
# 
DISCID=400d7516
DTITLE=Shu-bi-dua / Stærk Tobak!!! (CD1)
DYEAR=1991
DGENRE=folk
DID3=53
TTITLE0=Intro
TTITLE1=Stærk Tobak
TTITLE2=Livets Pølse
TTITLE3=Chinese Pin Fight
TTITLE4=Costa Kalundborg
TTITLE5=Ærmelunden
TTITLE6=Nappa og Nylon
TTITLE7=Sagnet om Regnormen Kurt og Arken I Parken
TTITLE8=McArine
TTITLE9=Knuden
TTITLE10=Mig og så Harry
TTITLE11=Rap Rap
TTITLE12=Intet Nyt Fra Vestfronten
TTITLE13=Krig og Fred
TTITLE14=Hvalborg
TTITLE15=Folkevognen
TTITLE16=Danmark
TTITLE17=Dialog I
TTITLE18=Vuffeli-vov
TTITLE19=De Tre Små Grise
TTITLE20=(There Is a) Dogshit in My Garden
TTITLE21=Outro
EXTD=
EXTT0=
EXTT1=
EXTT2=
EXTT3=
EXTT4=
EXTT5=
EXTT6=
EXTT7=
EXTT8=
EXTT9=
EXTT10=
EXTT11=
EXTT12=
EXTT13=
EXTT14=
EXTT15=
EXTT16=
EXTT17=
EXTT18=
EXTT19=
EXTT20=
EXTT21=
PLAYORDER=