Last change 2020.03.01 14:20:52 / Time 2021.10.18 11:11:29

Music Database

My complete CD collection digitalized using differnent Linux tools in connection with remote CDDB databases.
These web pages give overview of content according to CDDB info.

cddb/4007f606.txt

# xmcd CD database file generated by Grip 3.3.1
# 
# Track frame offsets:
#       150
#       17865
#       40217
#       75392
#       114097
#       132487
# 
# Disc length: 2040 seconds
# 
# Revision: 7
# Submitted via: Grip 3.3.1
# 
DISCID=4007f606
DTITLE=Everything But The Girl / Missing (CD Single)
DYEAR=1995
DGENRE=misc
DID3=3
TTITLE0=Missing (Todd Terry Club Mix (Blanco-Eternal Radio Edit))
TTITLE1=Missing (Todd Terry Club Mix)
TTITLE2=Missing (Rockin' Blue Mix)
TTITLE3=Missing (Chris & James Full On Club Mix)
TTITLE4=Missing (Amplified Heart Album Mix)
TTITLE5=Missing (Todd Terry Tee's Piece)
EXTD=NEG84CD YEAR: 1995
EXTT0=
EXTT1=
EXTT2=
EXTT3=
EXTT4=
EXTT5=
PLAYORDER=