Last change 2020.03.01 14:20:52 / Time 2021.10.18 09:37:13

Music Database

My complete CD collection digitalized using differnent Linux tools in connection with remote CDDB databases.
These web pages give overview of content according to CDDB info.

cddb/3f11af14.txt

# xmcd CD database file generated by Grip 3.3.1
# 
# Track frame offsets:
#       183
#       19478
#       35013
#       52808
#       70885
#       90815
#       109278
#       126940
#       141720
#       157343
#       176750
#       194905
#       206343
#       226235
#       243493
#       256413
#       274373
#       285408
#       304380
#       322273
# 
# Disc length: 4529 seconds
# 
# Revision: 4
# Submitted via: Grip 3.3.1
# 
DISCID=3f11af14
DTITLE=Boney M. / Gold
DYEAR=
DGENRE=misc
DID3=12
TTITLE0=Rivers of babylon
TTITLE1=Daddy cool
TTITLE2=Sunny
TTITLE3=Brown girl in the ring
TTITLE4=Rasputin
TTITLE5=Ma baker
TTITLE6=Hooray! hooray! it's a holiday
TTITLE7=Painter man
TTITLE8=Belfast
TTITLE9=No woman no cry
TTITLE10=Mary's boy child/oh my lord
TTITLE11=Gotta go home
TTITLE12=Still i'm sad
TTITLE13=Nightflight to venus
TTITLE14=Felicidad
TTITLE15=El lute
TTITLE16=Baby do you wanna bump
TTITLE17=Kalimba de luna
TTITLE18=Happy song
TTITLE19=Rivers of babylon (Mega mix)
EXTD=
EXTT0=
EXTT1=
EXTT2=
EXTT3=
EXTT4=
EXTT5=
EXTT6=
EXTT7=
EXTT8=
EXTT9=
EXTT10=
EXTT11=
EXTT12=
EXTT13=
EXTT14=
EXTT15=
EXTT16=
EXTT17=
EXTT18=
EXTT19=
PLAYORDER=