Last change 2020.03.01 14:20:52 / Time 2021.12.01 14:57:01

Music Database

My complete CD collection digitalized using differnent Linux tools in connection with remote CDDB databases.
These web pages give overview of content according to CDDB info.

cddb/3d129414.txt

# xmcd CD database file generated by Grip 3.3.1
# 
# Track frame offsets:
#       182
#       17580
#       35352
#       51127
#       73842
#       92725
#       113600
#       132225
#       149645
#       168440
#       190260
#       208875
#       224457
#       239472
#       256345
#       275645
#       289585
#       305777
#       321337
#       337965
# 
# Disc length: 4758 seconds
# 
# Revision: 1
# Submitted via: Grip 3.3.1
# 
DISCID=3d129414
DTITLE=Various / The Synthesizer Collection CD2
DYEAR=1996
DGENRE=newage
DID3=33
TTITLE0=Always On My Mind
TTITLE1=Sign Your Name
TTITLE2=A Groovy Kind Of Love
TTITLE3=In The Air Tonight
TTITLE4=Nothing Compares 2 U
TTITLE5=One Moment In Time
TTITLE6=The Living Years
TTITLE7=The Wind Beneath My Wings
TTITLE8=Baker Street
TTITLE9=Don't Let The Sun Go Down On Me
TTITLE10=(Everything I Do) I Do It For You
TTITLE11=Tears In Heaven
TTITLE12=Smooth Operator
TTITLE13=Don't Turn Around
TTITLE14=Endless Love
TTITLE15=The Power Of Love
TTITLE16=Without You
TTITLE17=Magic Fly
TTITLE18=Love Is All Around
TTITLE19=Streets of Philadelphia
EXTD=
EXTT0=
EXTT1=
EXTT2=
EXTT3=
EXTT4=
EXTT5=
EXTT6=
EXTT7=
EXTT8=
EXTT9=
EXTT10=
EXTT11=
EXTT12=
EXTT13=
EXTT14=
EXTT15=
EXTT16=
EXTT17=
EXTT18=
EXTT19=
PLAYORDER=