Last change 2020.03.01 14:20:52 / Time 2021.10.18 09:49:18

Music Database

My complete CD collection digitalized using differnent Linux tools in connection with remote CDDB databases.
These web pages give overview of content according to CDDB info.

cddb/3d050205.txt

#
# Track frame offsets:
#	150
#	21312
#	39324
#	56395
#	73839
#
# Disc length: 1284 seconds
#
# Submitted via: cddb-tool 0.4.7
#
#blues,classical,country,data,folk,jazz,newage,reggae,rock,soundtrack,misc
#CATEGORY=misc
DISCID=3d050205
DTITLE='4 Wheel Drive'	[from 4 Wheel Drive]
DYEAR=
DGENRE=
TTITLE0=While my guitar
TTITLE1=Sadan nogen som os
TTITLE2=Jutlandia
TTITLE3=Working Class Hero
TTITLE4=Saesonen er slut
EXTD=
EXTT0=
EXTT1=
EXTT2=
EXTT3=
EXTT4=
PLAYORDER=