Last change 2020.03.01 14:20:52 / Time 2020.09.25 04:18:14

Music Database

My complete CD collection digitalized using differnent Linux tools in connection with remote CDDB databases.
These web pages give overview of content according to CDDB info.

cddb/37094f06.txt

# xmcd CD database file generated by Grip 3.3.1
# 
# Track frame offsets:
#       150
#       34665
#       71317
#       84425
#       103530
#       150322
# 
# Disc length: 2385 seconds
# 
# Revision: 18
# Submitted via: Grip 3.3.1
# 
DISCID=37094f06
DTITLE=Jean Michel Jarre / Oxygene
DYEAR=1976
DGENRE=rock
DID3=52
TTITLE0=Oxygene (Part I)
TTITLE1=Oxygene (Part II)
TTITLE2=Oxygene (Part III)
TTITLE3=Oxygene (Part IV)
TTITLE4=Oxygene (Part V)
TTITLE5=Oxygene (Part VI)
EXTD= YEAR: 1976
EXTT0=
EXTT1=
EXTT2=
EXTT3=
EXTT4=
EXTT5=
PLAYORDER=