Last change 2020.03.01 14:20:52 / Time 2020.09.24 08:31:53

Music Database

My complete CD collection digitalized using differnent Linux tools in connection with remote CDDB databases.
These web pages give overview of content according to CDDB info.

cddb/360f5416.txt

# xmcd CD database file generated by Grip 3.2.0
# 
# Track frame offsets:
#       150
#       16350
#       34945
#       45675
#       57757
#       69175
#       78335
#       90354
#       101847
#       112965
#       125370
#       134607
#       147652
#       159025
#       172395
#       183827
#       199745
#       221557
#       234034
#       245115
#       260640
#       279350
# 
# Disc length: 3926 seconds
# 
# Revision: 0
# Submitted via: Grip 3.2.0
# 
DISCID=360f5416
DTITLE=Johnny Reimar / Party Sommer (CD1)
DYEAR=1999
DGENRE=misc
DID3=12
TTITLE0=Sikke'n fest
TTITLE1=Sol står op
TTITLE2=Smilende Susie
TTITLE3=Der er sol i dine øjne
TTITLE4=Skagens fyr
TTITLE5=Ra-ta-ta-ta
TTITLE6=Når jeg tænker på lille Alvilda
TTITLE7=Lille sorte stær
TTITLE8=Sommer og sol
TTITLE9=Bank tre gange
TTITLE10=Olé der var i Spanien
TTITLE11=Der er noget galt i Danmark
TTITLE12=Fut i fejemøget
TTITLE13=Ikke flere penge fyret fra mit job
TTITLE14=Døllefjælde-Musse
TTITLE15=Jeg er på vej til Herstedvester
TTITLE16=Bare der er sol i dine øjne
TTITLE17=Søde sommerminder
TTITLE18=Sla-ba-du-ba-delle
TTITLE19=Du burde købe dig en tyrolerhat
TTITLE20=Sikke'n fest '99 (Tango Tage vs. Johnny Reimar)
TTITLE21=Smølfesangen
EXTD=
EXTT0=
EXTT1=
EXTT2=
EXTT3=
EXTT4=
EXTT5=
EXTT6=
EXTT7=
EXTT8=
EXTT9=
EXTT10=
EXTT11=
EXTT12=
EXTT13=
EXTT14=
EXTT15=
EXTT16=
EXTT17=
EXTT18=
EXTT19=
EXTT20=
EXTT21=
PLAYORDER=