Last change 2020.03.01 14:20:52 / Time 2020.09.25 02:41:18

Music Database

My complete CD collection digitalized using differnent Linux tools in connection with remote CDDB databases.
These web pages give overview of content according to CDDB info.

cddb/350fc616.txt

# xmcd CD database file generated by Grip 3.2.0
# 
# Track frame offsets:
#       150
#       18221
#       33321
#       48109
#       62753
#       71305
#       84240
#       97587
#       113849
#       126852
#       138766
#       156306
#       169979
#       185191
#       201811
#       214022
#       225606
#       238902
#       250365
#       265831
#       279611
#       290411
# 
# Disc length: 4040 seconds
# 
# Revision: 4
# Submitted via: Grip 3.2.0
# 
DISCID=350fc616
DTITLE=Teresa Teng / 25Year Vol4 (ACD-1999-1-1)
DYEAR=
DGENRE=misc
DID3=13
TTITLE0=Selling “zong zi” (rice wrapped in bamboo leaves)
TTITLE1=Dark sky
TTITLE2=Can’t forget the first lover
TTITLE3=Unforgettable lover
TTITLE4=Grandmother’s words
TTITLE5=Looking for the spring wind
TTITLE6=Eleven song
TTITLE7=Long lasting past love
TTITLE8=Remembrance of An-ping (An-ping is a town)
TTITLE9=Female dragon in the harsh sea 
TTITLE10=Compelling three times
TTITLE11=June’s jasmine
TTITLE12=Feel grieved
TTITLE13=Heartbroken love
TTITLE14=Flower under raining night
TTITLE15=Together must be good and comfortable
TTITLE16=Rotating lantern
TTITLE17=A meteor
TTITLE18=Sailing out happily
TTITLE19=Bad husband poor marriage
TTITLE20=Marriage opportunity
TTITLE21=Life is a road
EXTD=
EXTT0=
EXTT1=
EXTT2=
EXTT3=
EXTT4=
EXTT5=
EXTT6=
EXTT7=
EXTT8=
EXTT9=
EXTT10=
EXTT11=
EXTT12=
EXTT13=
EXTT14=
EXTT15=
EXTT16=
EXTT17=
EXTT18=
EXTT19=
EXTT20=
EXTT21=
PLAYORDER=