Last change 2020.03.01 14:20:52 / Time 2021.10.22 10:27:47

Music Database

My complete CD collection digitalized using differnent Linux tools in connection with remote CDDB databases.
These web pages give overview of content according to CDDB info.

cddb/34111a14.txt

# xmcd CD database file generated by Grip 3.3.1
# 
# Track frame offsets:
#       150
#       13132
#       28552
#       47800
#       64807
#       79717
#       99255
#       118710
#       136460
#       152085
#       161797
#       177722
#       194200
#       207242
#       222727
#       237050
#       256940
#       269722
#       285192
#       298505
# 
# Disc length: 4380 seconds
# 
# Revision: 4
# Submitted via: Grip 3.3.1
# 
DISCID=34111a14
DTITLE=Johnny Madsen / Fyrre af de Fede CD2
DYEAR=1996
DGENRE=rock
DID3=0
TTITLE0=Bakketoppen
TTITLE1=En At Bli' Som
TTITLE2=Johnny The Blues
TTITLE3=Hjemad
TTITLE4=Nattegn
TTITLE5=Jenny
TTITLE6=Griseriet På  Bounty
TTITLE7=Manden Med Stråhatten
TTITLE8=Ses Vi i Slesvig
TTITLE9=Mandolinspilleren
TTITLE10=Blå  Måne Over Themsen
TTITLE11=Mona Lisa
TTITLE12=Der Ligger Sne På  Coney Island
TTITLE13=Get Along
TTITLE14=Jim Og Joe
TTITLE15=Vinden Vender
TTITLE16=Jokerman
TTITLE17=Sølver Blue
TTITLE18=Natkatten Og Rockulven
TTITLE19=Johnny Vær Go'
EXTD=
EXTT0=
EXTT1=
EXTT2=
EXTT3=
EXTT4=
EXTT5=
EXTT6=
EXTT7=
EXTT8=
EXTT9=
EXTT10=
EXTT11=
EXTT12=
EXTT13=
EXTT14=
EXTT15=
EXTT16=
EXTT17=
EXTT18=
EXTT19=
PLAYORDER=