Last change 2020.03.01 14:20:52 / Time 2021.10.22 10:25:15

Music Database

My complete CD collection digitalized using differnent Linux tools in connection with remote CDDB databases.
These web pages give overview of content according to CDDB info.

cddb/31101a13.txt

# xmcd CD database file generated by Grip 3.3.1
# 
# Track frame offsets:
#       150
#       14963
#       33726
#       49911
#       66361
#       82734
#       94886
#       110089
#       124449
#       139039
#       155844
#       170943
#       188953
#       206295
#       225678
#       250954
#       264840
#       277431
#       291101
# 
# Disc length: 4124 seconds
# 
# Revision: 2
# Submitted via: Grip 3.3.1
# 
DISCID=31101a13
DTITLE=Various / Hot Dance 2005
DYEAR=
DGENRE=misc
DID3=-1
TTITLE0=I Believe - Tata Young
TTITLE1=L-L-Lies - diana King
TTITLE2=Dragonstea Din Tei - O-Zone
TTITLE3=You Promised Me - In Grid
TTITLE4=Let's Get Retarded - The Black Eyed Peas
TTITLE5=Owner of a Lonely Heart - Max Graham vs Yes
TTITLE6=Mundian To Bach Ke - Panjabi MC
TTITLE7=Boro Boro - Arash
TTITLE8=Here 4 Me - Blazin Squad
TTITLE9=Tempted to Touch - Rupee
TTITLE10=Turn me On - Kevin Lyttle
TTITLE11=Scandalous - Mis Teeq
TTITLE12=Move Ya Body - Nina Sky
TTITLE13=I will Survive - Gloria Gaynor
TTITLE14=What a Feeling - Da Flash
TTITLE15=Habibi - El Samah
TTITLE16=Out Of Touch - Uniting Nations
TTITLE17=Break My Stride - Blue Lagoon
TTITLE18=Ding Dong Song - Gunther & The Sunshine Girls
EXTD=
EXTT0=
EXTT1=
EXTT2=
EXTT3=
EXTT4=
EXTT5=
EXTT6=
EXTT7=
EXTT8=
EXTT9=
EXTT10=
EXTT11=
EXTT12=
EXTT13=
EXTT14=
EXTT15=
EXTT16=
EXTT17=
EXTT18=
PLAYORDER=