Last change 2020.03.01 14:20:52 / Time 2021.12.01 16:19:16

Music Database

My complete CD collection digitalized using differnent Linux tools in connection with remote CDDB databases.
These web pages give overview of content according to CDDB info.

cddb/310f2114.txt

# xmcd
#
# Track frame offsets: 
#        150
#        13066
#        26718
#        44572
#        56803
#        73476
#        85390
#        102791
#        120031
#        133011
#        147392
#        157441
#        170964
#        182818
#        196460
#        208663
#        225713
#        239283
#        255174
#        272667
#
# Disc length: 3875 seconds
#
# Revision: 2
# Processed by: cddbd v1.5.2PL0 Copyright (c) Steve Scherf et al.
# Submitted via: ExactAudioCopy v1.0b3
#
DISCID=310f2114
DTITLE=Diverse / Dansktop Gennem 40 År - CD1
DYEAR=2008
DGENRE=Pop
TTITLE0=Kandis / En Lille Ring Af Guld
TTITLE1=Birthe Kjær / Arrivederci Franz
TTITLE2=Fede Finn & Funny Boyz / Kærligheden Brænder
TTITLE3=John Mogensen / Der Er Noget Galt I Danmark
TTITLE4=Bjørn & Okay / Den Gule Flyver
TTITLE5=Dorthe Kollo / Gid Du Var I Skanderborg
TTITLE6=Jodle Birge / Rigtige Venner
TTITLE7=Anette Klingenberg / Snart Er Du Mer' End 17 År
TTITLE8=To Jyde / Da Farfar Var Ung
TTITLE9=Kandis / Glade Minder
TTITLE10=Birgit Lystager / Smilende Susie
TTITLE11=Richard Ragnvald / Tak Fordi Vi Er Venner
TTITLE12=Five Tony's / Kære Lille Anna
TTITLE13=Peter Westh / En Hel Flaske Rom
TTITLE14=Ulla Pia / Flower Power Tøj
TTITLE15=Bjørn Tidmand / Lille Sommerfugl
TTITLE16=Bjørn & Okay / Dig Vil Jeg Elske
TTITLE17=Klaus & Servant / Bank Tre Gange
TTITLE18=Lecia & Lucienne / Rør Ved Mig
TTITLE19=Tørfisk / V. L. T. J.
EXTD=
EXTT0=
EXTT1=
EXTT2=
EXTT3=
EXTT4=
EXTT5=
EXTT6=
EXTT7=
EXTT8=
EXTT9=
EXTT10=
EXTT11=
EXTT12=
EXTT13=
EXTT14=
EXTT15=
EXTT16=
EXTT17=
EXTT18=
EXTT19=
PLAYORDER=
.