Last change 2020.03.01 14:20:52 / Time 2020.09.25 04:31:08

Music Database

My complete CD collection digitalized using differnent Linux tools in connection with remote CDDB databases.
These web pages give overview of content according to CDDB info.

cddb/30122304.txt

# xmcd CD database file generated by Grip 3.3.1
# 
# Track frame offsets:
#       150
#       108147
#       215202
#       305282
# 
# Disc length: 4645 seconds
# 
# Revision: 5
# Submitted via: Grip 3.3.1
# 
DISCID=30122304
DTITLE=Buddhist Chants / Music for Contemplation and Reflection
DYEAR=
DGENRE=misc
DID3=-1
TTITLE0=Karma - Avoiding Mantra
TTITLE1=The Buddha Of Medicine
TTITLE2=The Heart - Mantra Of Medicine Master Buddha
TTITLE3=The Offerings Of Flower & Incense
EXTD=
EXTT0=
EXTT1=
EXTT2=
EXTT3=
PLAYORDER=