Last change 2020.03.01 14:20:52 / Time 2020.09.19 15:30:52

Music Database

My complete CD collection digitalized using differnent Linux tools in connection with remote CDDB databases.
These web pages give overview of content according to CDDB info.

cddb/3011e813.txt

# xmcd
#
# Track frame offsets:
#	150
#	17775
#	40875
#	59400
#	74625
#	96300
#	112500
#	126525
#	145275
#	166350
#	200550
#	213000
#	221850
#	256200
#	266025
#	277200
#	287475
#	318075
#	333300
#
# Disc length: 4586
#
# Revision: 1
# Processed by: cddbd v1.5.2PL0 Copyright (c) Steve Scherf et al.
# Submitted via: VisiTrax 2.9.9.209 - For more info visit www.synapsa.com
# Normalized: r0:DSETVAR1
#
DISCID=3011e813
DTITLE=Various / Scandinavian Highlights
DYEAR=1996
DGENRE=
TTITLE0=Edvard Grieg / Morgenstemning, Peer Gynt
TTITLE1=Edvard Grieg / Solveigs Sang, Peer Gynt
TTITLE2=Kurt Atterberg / Suite No. 3
TTITLE3=Carl Nielsen / Tåken letter
TTITLE4=Carl Nielsen / Symphoni No. 2, op. 16, The four Temperaments"
TTITLE5=W. Peterson-Berger / Till Rosorna
TTITLE6=Ture Rangström / En visa till Karin när hon hade dansat
TTITLE7=Lars-Erik Larsson / Pastoral Suite op. 19, 2. Romanse
TTITLE8=Joachim Andersen / Albumblatt
TTITLE9=Tor Aulin / Violin Concerto No. 3 in C minor
TTITLE10=Wilhelm Stenhammar / Adagio
TTITLE11=Wilhelm Stenhammar / Vandraren
TTITLE12=Friedrich Kuhlau / 3 Divertissements, op. 68
TTITLE13=Johan Halvosen / Velsemøys Sang
TTITLE14=Ole Bull / La Mélancolie
TTITLE15=Trad / Jeg lagde meg så silde
TTITLE16=Edvard Grieg / Piano Concerto in A minor, op 16
TTITLE17=Carl Sjöberg / Tonerna
TTITLE18=Hugo Alfvén / Lag längtar dig
EXTD=
EXTT0=
EXTT1=
EXTT2=
EXTT3=
EXTT4=
EXTT5=
EXTT6=
EXTT7=
EXTT8=
EXTT9=
EXTT10=
EXTT11=
EXTT12=
EXTT13=
EXTT14=
EXTT15=
EXTT16=
EXTT17=
EXTT18=
PLAYORDER=
.