Last change 2020.03.01 14:20:52 / Time 2020.09.19 15:33:41

Music Database

My complete CD collection digitalized using differnent Linux tools in connection with remote CDDB databases.
These web pages give overview of content according to CDDB info.

cddb/30115314.txt

# xmcd CD database file generated by Grip 3.0.7
# 
# Track frame offsets:
#       150
#       15421
#       26953
#       42954
#       61499
#       74089
#       85088
#       103075
#       119154
#       137688
#       154434
#       170144
#       184437
#       213953
#       229011
#       243784
#       260283
#       283339
#       303988
#       316467
# 
# Disc length: 4437 seconds
# 
# Revision: 2
# Submitted via: Grip 3.0.7
# 
DISCID=30115314
DTITLE=Various Artists / One Hit Wonders - CD4
DYEAR=2001
DGENRE=misc
DID3=12
TTITLE0=Minnie Riperton / Loving You
TTITLE1=Pal Anka / (You're) Having My Baby
TTITLE2=Bille Jo Spears / Blanket On The Ground
TTITLE3=Typically Tropical / Barbados
TTITLE4=George Baker Selection / Una Paloma Blanca
TTITLE5=Teach In / Ding-A-dong
TTITLE6=Average White Band / Pick Up The Pieces
TTITLE7=Morris Albert / Feelings
TTITLE8=Steeleye Span / All Around My Hat
TTITLE9=Tavares / Heaven Must Be Missing An Angel
TTITLE10=Real Thing / You To Me Are Everything
TTITLE11=Wild Cherry / Play That Funky Music
TTITLE12=Al Stewart / Year Of The Cat
TTITLE13=Johnny Wakelin / In Zaire
TTITLE14=David Dundas / Jeans On
TTITLE15=Silk / Forever and Ever
TTITLE16=Danny Mirror / I Remember Elvis Presley
TTITLE17=Long Tall Ernie And The Shakers / Do You Remember
TTITLE18=Dillinger / Cocaine
TTITLE19=Racing Cars / They Shoot Horses Don't They
EXTD=
EXTT0=
EXTT1=
EXTT2=
EXTT3=
EXTT4=
EXTT5=
EXTT6=
EXTT7=
EXTT8=
EXTT9=
EXTT10=
EXTT11=
EXTT12=
EXTT13=
EXTT14=
EXTT15=
EXTT16=
EXTT17=
EXTT18=
EXTT19=
PLAYORDER=