Last change 2020.03.01 14:20:52 / Time 2021.12.01 16:20:56

Music Database

My complete CD collection digitalized using differnent Linux tools in connection with remote CDDB databases.
These web pages give overview of content according to CDDB info.

cddb/300d8114.txt

# xmcd
# 
# Track frame offsets:
#     150
#     11972
#     26027
#     41685
#     54230
#     68042
#     81292
#     98130
#     110992
#     124440
#     137002
#     147447
#     164300
#     175092
#     185652
#     197195
#     205367
#     218415
#     230030
#     248780
# 
# Disc length: 3459
# 
# Revision: 16
# Processed by: cddbd v1.5.2PL0 Copyright (c) Steve Scherf et al.
# Submitted via: BonkEnc v1.0.8
# 
DISCID=300d8114
DTITLE=Johnny Cash / The Best of Johnny Cash
TTITLE0=Ring of Fire
TTITLE1=Orange Blossom Special
TTITLE2=The Night They Drove Old Dixie Down
TTITLE3=Jackson
TTITLE4=Don't Take Your Guns to Town
TTITLE5=I Walk the Line
TTITLE6=A Boy Named Sue
TTITLE7=San Quentin
TTITLE8=If I Were a Carpenter (with June Carter)
TTITLE9=Folsom Prison Blues
TTITLE10=Kate
TTITLE11=(Ghost) Riders in the Sky
TTITLE12=Daddy Sang Bass
TTITLE13=Bonanza
TTITLE14=In them Old Cottonfields Back Home
TTITLE15=Five Feet High and Rising
TTITLE16=Man in Black
TTITLE17=A Thing Called Love
TTITLE18=The Ballad of Ira Hayes
TTITLE19=In the Jailhouse Now
EXTD=
EXTT0=
EXTT1=
EXTT2=
EXTT3=
EXTT4=
EXTT5=
EXTT6=
EXTT7=
EXTT8=
EXTT9=
EXTT10=
EXTT11=
EXTT12=
EXTT13=
EXTT14=
EXTT15=
EXTT16=
EXTT17=
EXTT18=
EXTT19=
PLAYORDER=