Last change 2020.03.01 14:20:52 / Time 2020.09.24 07:27:55

Music Database

My complete CD collection digitalized using differnent Linux tools in connection with remote CDDB databases.
These web pages give overview of content according to CDDB info.

cddb/300c7304.txt

# xmcd CD database file generated by Grip 3.3.1
# 
# Track frame offsets:
#       151
#       46674
#       89105
#       131690
# 
# Disc length: 3189 seconds
# 
# Revision: 0
# Submitted via: Grip 3.3.1
# 
DISCID=300c7304
DTITLE=Buddha / Green Blue Sky Acd 01391
DYEAR=
DGENRE=misc
DID3=20
TTITLE0=Track1
TTITLE1=Track2
TTITLE2=Track3
TTITLE3=Track4
EXTD=
EXTT0=
EXTT1=
EXTT2=
EXTT3=
PLAYORDER=