Last change 2020.03.01 14:20:52 / Time 2021.12.01 15:19:31

Music Database

My complete CD collection digitalized using differnent Linux tools in connection with remote CDDB databases.
These web pages give overview of content according to CDDB info.

cddb/2e12ba16.txt

# xmcd CD database file generated by Grip 3.3.1
# 
# Track frame offsets:
#       150
#       18455
#       33885
#       48802
#       64632
#       85742
#       101215
#       116687
#       133552
#       150970
#       165800
#       184255
#       200502
#       218385
#       234122
#       247467
#       263605
#       280797
#       295835
#       314142
#       327992
#       341535
# 
# Disc length: 4796 seconds
# 
# Revision: 2
# Submitted via: Grip 3.3.1
# 
DISCID=2e12ba16
DTITLE=Misc. Artists / Disco Fever (CD2)
DYEAR=
DGENRE=misc
DID3=12
TTITLE0=Diana Ross / Upside Down
TTITLE1=Tha Gap Band / Oops Upside Your Head
TTITLE2=Sister Sledge / We Are Family
TTITLE3=Kool & The Gang / Get Down On It
TTITLE4=Rufus & Chaka Khan / Ain´t Nobody
TTITLE5=Odyssey / Going Back To My Roots
TTITLE6=Boney M / Daddy Cool
TTITLE7=Village Peaple / Ymca
TTITLE8=Peaches & Hero / Shake Your Groove Thing
TTITLE9=Rose Royce / Car Wash
TTITLE10=The Brothers Johnson / Stomp
TTITLE11=Thela Houston / Don´t Leave Me This Way
TTITLE12=Lipps Inc. / Funkytown
TTITLE13=Weather Girls / It´s Raining Men
TTITLE14=The Three Degrees / When Will I See You Again
TTITLE15=Heatwave / Boogie Night
TTITLE16=Jocelyn Brown / Someboby Else´s Guy
TTITLE17=Johnny Bristol / Hang On In There Baby
TTITLE18=Patrice Rushen / Forget Me Nots
TTITLE19=Hues Corporation / Rock The Boat
TTITLE20=Tina Charles / I Love To Love
TTITLE21=Van Mccoy & The Soul City Symphony / The Hustle
EXTD=
EXTT0=
EXTT1=
EXTT2=
EXTT3=
EXTT4=
EXTT5=
EXTT6=
EXTT7=
EXTT8=
EXTT9=
EXTT10=
EXTT11=
EXTT12=
EXTT13=
EXTT14=
EXTT15=
EXTT16=
EXTT17=
EXTT18=
EXTT19=
EXTT20=
EXTT21=
PLAYORDER=