Last change 2020.03.01 14:20:52 / Time 2021.10.18 12:06:53

Music Database

My complete CD collection digitalized using differnent Linux tools in connection with remote CDDB databases.
These web pages give overview of content according to CDDB info.

cddb/2e10a516.txt

# xmcd CD database file generated by Grip 3.3.1
# 
# Track frame offsets:
#       150
#       11962
#       28760
#       45257
#       57092
#       75057
#       92237
#       107717
#       124320
#       140822
#       153007
#       166467
#       180055
#       196215
#       211260
#       227760
#       244867
#       255322
#       272642
#       283255
#       294475
#       305980
# 
# Disc length: 4263 seconds
# 
# Revision: 0
# Submitted via: Grip 3.3.1
# 
DISCID=2e10a516
DTITLE=Teresa Teng / 25Year Vol3 (ACD-1996-9-2) Black
DYEAR=
DGENRE=misc
DID3=13
TTITLE0=Story of a little town
TTITLE1=At the water side
TTITLE2=Have another glass
TTITLE3=If the dream is real
TTITLE4=The camellia
TTITLE5=Deep of my heart
TTITLE6=Young lady from the mountain A-Li
TTITLE7=When to turn back again
TTITLE8=Tear drops like drizzling
TTITLE9=The Jasmine
TTITLE10=I didn’t cheat you
TTITLE11=Walking from south to north of a mountain
TTITLE12=Light falling rain
TTITLE13=You are in my heart
TTITLE14=Thank you for often remember me
TTITLE15=Thought of you tonight
TTITLE16=Love at first sight
TTITLE17=Lift is but a play
TTITLE18=Small Narcissus
TTITLE19=You are not in my mind
TTITLE20=Peach flowers blossom in the spring wind 
TTITLE21=Red in the snow
EXTD=
EXTT0=
EXTT1=
EXTT2=
EXTT3=
EXTT4=
EXTT5=
EXTT6=
EXTT7=
EXTT8=
EXTT9=
EXTT10=
EXTT11=
EXTT12=
EXTT13=
EXTT14=
EXTT15=
EXTT16=
EXTT17=
EXTT18=
EXTT19=
EXTT20=
EXTT21=
PLAYORDER=