Last change 2020.03.01 14:20:52 / Time 2020.09.24 07:19:27

Music Database

My complete CD collection digitalized using differnent Linux tools in connection with remote CDDB databases.
These web pages give overview of content according to CDDB info.

cddb/2d12b916w.txt

# xmcd
#
# Track frame offsets:
#	150
#	12732
#	23980
#	35302
#	56342
#	71820
#	85782
#	95950
#	114887
#	128700
#	143905
#	158725
#	174980
#	190320
#	207020
#	226735
#	241345
#	255387
#	275590
#	290477
#	301972
#	333075
#
# Disc length: 4795 seconds
#
# Revision: 1
# Processed by: cddbd v1.5.2PL0 Copyright (c) Steve Scherf et al.
# Submitted via: EasyCDDAExtractor 6.5.0.1
#
DISCID=2d12b916
DTITLE=Big Fat Snake / One Night Of Sin
DYEAR=2003
DGENRE=Rock
TTITLE0=See See Rider
TTITLE1=One Night Of Sin
TTITLE2=Only The Lonely
TTITLE3=Fight For Your Love
TTITLE4=You Gave Me A Mountain
TTITLE5=In Dreams
TTITLE6=Mean Woman Blues
TTITLE7=No Peace Like In Heaven
TTITLE8=Animal
TTITLE9=Bonsoir Madame
TTITLE10=Sweet Inspirations
TTITLE11=Pretty Woman
TTITLE12=Always On My Mind
TTITLE13=Johnny B. Goode
TTITLE14=Someone Like You
TTITLE15=Steamroller Blues
TTITLE16=What Now My Love
TTITLE17=Suspicious Minds
TTITLE18=A Love So Beautiful
TTITLE19=Fire Down Below
TTITLE20=My Way
TTITLE21=Extra
EXTD=
EXTT0=
EXTT1=
EXTT2=
EXTT3=
EXTT4=
EXTT5=
EXTT6=
EXTT7=
EXTT8=
EXTT9=
EXTT10=
EXTT11=
EXTT12=
EXTT13=
EXTT14=
EXTT15=
EXTT16=
EXTT17=
EXTT18=
EXTT19=
EXTT20=
EXTT21=
PLAYORDER=