Last change 2020.03.01 14:20:52 / Time 2021.10.22 09:57:21

Music Database

My complete CD collection digitalized using differnent Linux tools in connection with remote CDDB databases.
These web pages give overview of content according to CDDB info.

cddb/2d122714.txt

# xmcd CD database file
# Generated: Sun Feb  7 17:23:03 2010 by WSPse's MP3c
#
# Track frame offsets:
#       150
#       16275
#       34200
#       48975
#       65100
#       82350
#       95925
#       110175
#       127650
#       144450
#       164775
#       184050
#       197325
#       213000
#       233175
#       249075
#       276975
#       294750
#       310350
#       332775
#
# Disc length: 4649 seconds
#
# Revision: 1
# Submitted via: MP3c 0.29
#   WSPse pp3c-0.29 (NLS) - ENGLISH (Sep 14 2004) Default:OGG
#
DISCID=2d122714
DTITLE=Rocazino / Det Bedste CD2
TTITLE0=All My Love
TTITLE1=La' Mig Sove
TTITLE2=Jeg Savner Dig
TTITLE3=Fandens Lillefinger
TTITLE4=Go' Morn
TTITLE5=Maaske
TTITLE6=Jeg Mente Alt Hvad Jeg Sagde
TTITLE7=Krystal
TTITLE8=Maa Vi Ikke Elske Livet
TTITLE9=Gi' Op
TTITLE10=Lanterner
TTITLE11=Foraar Igen
TTITLE12=Bliv Ved
TTITLE13=Miss Europa
TTITLE14=Timen Starter Nu
TTITLE15=Lov At Vaere Sig Selv
TTITLE16=Godnat
TTITLE17=Jeg Ville Love Dig Alt
TTITLE18=Med Dig
TTITLE19=Ridder Lykke ( '95 MIX)
EXTD=
EXTT0=
EXTT1=
EXTT2=
EXTT3=
EXTT4=
EXTT5=
EXTT6=
EXTT7=
EXTT8=
EXTT9=
EXTT10=
EXTT11=
EXTT12=
EXTT13=
EXTT14=
EXTT15=
EXTT16=
EXTT17=
EXTT18=
EXTT19=
PLAYORDER=