Last change 2020.03.01 14:20:52 / Time 2021.10.22 10:37:57

Music Database

My complete CD collection digitalized using differnent Linux tools in connection with remote CDDB databases.
These web pages give overview of content according to CDDB info.

cddb/2d0cfa03.txt

#
# Track frame offsets:
#	151
#	74942
#	169290
#
# Disc length: 3324 seconds
#
# Submitted via: cddb-tool 0.4.7
#
#blues,classical,country,data,folk,jazz,newage,reggae,rock,soundtrack,misc
#CATEGORY=misc
DISCID=2d0cfa03
DTITLE=Unknown Artist / Unknown Album
DYEAR=
DGENRE=
TTITLE0=Track 1
TTITLE1=Track 2
TTITLE2=Track 3
EXTD=
EXTT0=
EXTT1=
EXTT2=
PLAYORDER=